<?xml version="1.0" standalone="no"?>
<!DOCTYPE svg PUBLIC "-//W3C//DTD SVG 1.1//EN" "http://www.w3.org/Graphics/SVG/1.1/DTD/svg11.dtd" >
<svg xmlns="http://www.w3.org/2000/svg" xmlns:xlink="http://www.w3.org/1999/xlink" version="1.1">
<metadata>
Created by FontForge 20201107 at Mon Jan 16 07:12:50 2023
 By 
Copyright (C) 2023 by UICreative. All Right Reserved
</metadata>
<defs>
<font id="Ambrotype" horiz-adv-x="484" >
  <font-face 
    font-family="Ambrotype"
    font-weight="400"
    font-stretch="normal"
    units-per-em="1000"
    panose-1="0 0 0 0 0 0 0 0 0 0"
    ascent="800"
    descent="-200"
    x-height="485"
    cap-height="662"
    bbox="-102 -197.333 1091 841"
    underline-thickness="0"
    underline-position="0"
    unicode-range="U+000A-20AC"
  />
<missing-glyph horiz-adv-x="527" 
d="M50 700h427v-700h-427v700zM78 680l185 -309l186 309h-371zM251 350l-180 300v-601zM264 329l-185 -308h370zM276 350l181 -303v605z" />
    <glyph glyph-name=".notdef" horiz-adv-x="527" 
d="M50 700h427v-700h-427v700zM78 680l185 -309l186 309h-371zM251 350l-180 300v-601zM264 329l-185 -308h370zM276 350l181 -303v605z" />
    <glyph glyph-name=".null" horiz-adv-x="0" 
 />
    <glyph glyph-name=".null" horiz-adv-x="0" 
 />
    <glyph glyph-name="nonmarkingreturn" horiz-adv-x="333" 
 />
    <glyph glyph-name="controlLF" unicode="&#xa;" horiz-adv-x="0" 
 />
    <glyph glyph-name="controlCR" unicode="&#xd;" horiz-adv-x="0" 
 />
    <glyph glyph-name="space" unicode=" " horiz-adv-x="365" 
 />
    <glyph glyph-name="exclam" unicode="!" horiz-adv-x="202" 
d="M153 75q4 -8 4 -20q0 -13 -4 -22q-4 -10 -11.5 -17.5t-18 -11.5t-22.5 -4t-22 4t-18 10q-9 8 -13 17.5t-4 20.5t4 21t12 18q8 9 18.5 13.5t22 4.5t21.5 -4.5t19 -11.5q8 -9 12 -18zM111 161h-28l-31 476q-1 9 5.5 16.5t16.5 7.5h53q10 0 16.5 -7.5t5.5 -16.5z" />
    <glyph glyph-name="quotedbl" unicode="&#x22;" horiz-adv-x="263" 
d="M73 625q22 0 30.5 -7t7.5 -20l-21 -157h-34l-21 154q-2 17 8 23.5t30 6.5zM189 625q23 0 31.5 -7t6.5 -20l-20 -157h-34l-21 154q-2 17 8 23.5t29 6.5z" />
    <glyph glyph-name="numbersign" unicode="#" horiz-adv-x="509" 
d="M468 332h-90l-31 -134h95l-15 -66h-95l-30 -132h-31l31 132h-124l-30 -132h-59l30 132h-82l16 66h81l32 134h-108l5 28h108l26 120h59l-27 -120h124l27 120h29l-26 -120h91zM317 198l31 134h-124l-31 -134h124z" />
    <glyph glyph-name="dollar" unicode="$" horiz-adv-x="503" 
d="M419 307q43 -43 43 -108q0 -54 -27 -98q-26 -45 -74 -70q-40 -21 -93 -25v-93h-32v93q-55 3 -107 28q-59 28 -86 83l-1 2l16 22l2 -5q24 -50 78 -76q47 -24 98 -26v257q-1 1 -3.5 2t-3.5 2q-68 31 -106 56q-39 24 -60 57t-21 79q0 59 28 101q28 41 75 63q41 19 91 21v62
h32v-63q51 -5 95 -30q55 -31 79 -84l2 -2l-17 -22l-2 5q-22 50 -73 78q-40 23 -84 27v-239l20 -10q88 -44 131 -87zM236 420v224q-54 -3 -85 -26q-35 -27 -35 -78q0 -28 16 -50q16 -21 44 -37q21 -13 60 -33zM343 64q35 30 35 85q0 42 -36 76q-26 25 -74 51v-242q47 5 75 30
z" />
    <glyph glyph-name="percent" unicode="%" horiz-adv-x="688" 
d="M289.5 405q-41.5 -43 -109.5 -43q-88 0 -129 74q-18 32 -18 74q0 67 41.5 109.5t108.5 42.5q66 0 107 -40t41 -106q0 -68 -41.5 -111zM122 510q0 -119 58 -119q41 0 55 53q7 25 7 73q0 117 -59 117q-61 0 -61 -124zM609 265q45 -38 45 -111q0 -68 -41 -111t-109 -43
q-65 0 -106 41.5t-41 106.5q0 67 41.5 109.5t108.5 42.5q59 0 102 -35zM560 86q6 25 6 69q0 116 -59 116q-61 0 -61 -123q0 -119 58 -119q43 0 56 57zM475 662h55l-318 -662h-55z" />
    <glyph glyph-name="ampersand" unicode="&#x26;" horiz-adv-x="644" 
d="M500 150l122 -152h-107l-66 81l-7.5 -10t-22.5 -21t-39.5 -26.5t-59 -21t-80.5 -9.5q-75 0 -126 36t-67 86q-10 32 -11 62.5t7.5 54t19.5 43.5t29.5 36.5t33.5 28t34 21t28 13.5t20 9q-3 4 -16 22t-18.5 28t-14 28t-10.5 35.5t1 37.5q6 46 42.5 76.5t93.5 30.5
q39 0 67.5 -11.5t43.5 -30.5t21.5 -37.5t6.5 -37.5q0 -27 -12 -50t-29.5 -37.5t-35 -25t-29.5 -14.5l-12 -4l173 -214q26 50 40 121h35q-7 -36 -20.5 -73t-24.5 -56zM298 615q-28 0 -43 -24.5t-15 -57.5q0 -52 48 -120q3 1 7.5 3t15.5 11t20 21t16 34t7 48q0 32 -14 58.5
t-42 26.5zM266 40q35 -2 61.5 2.5t45 15.5t27.5 19t21 21q4 5 6 7l-199 250q-8 -3 -19 -8.5t-34.5 -24.5t-32.5 -41q-22 -53 -15 -97t32.5 -75.5t54.5 -49t52 -19.5z" />
    <glyph glyph-name="quotesingle" unicode="'" horiz-adv-x="146" 
d="M73 625q22 0 30.5 -7t7.5 -20l-21 -157h-34l-21 154q-2 17 8 23.5t30 6.5z" />
    <glyph glyph-name="parenleft" unicode="(" horiz-adv-x="233" 
d="M233 715q-121 -165 -121 -395q0 -229 121 -394l-45 -31q-64 79 -103.5 192.5t-39.5 232.5q0 121 39.5 234t103.5 193z" />
    <glyph glyph-name="parenright" unicode=")" horiz-adv-x="233" 
d="M147.5 554q39.5 -113 39.5 -233t-39.5 -233.5t-102.5 -192.5l-46 31q122 165 122 395q0 229 -122 394l46 32q63 -80 102.5 -193z" />
    <glyph glyph-name="asterisk" unicode="*" horiz-adv-x="274" 
d="M241 618l-68 -58l61 -53l-30 -36l-44 38v-68h-47v68l-44 -38l-30 36l62 53l-68 58l30 36l50 -43v69h47v-69l51 43z" />
    <glyph glyph-name="plus" unicode="+" horiz-adv-x="534" 
d="M310 319h198v-41h-198v-223h-86v223h-198v41h198v218h86v-218z" />
    <glyph glyph-name="comma" unicode="," horiz-adv-x="183" 
d="M79 80q28 0 52 -24.5t24 -69.5q0 -49 -34.5 -82.5t-79.5 -46.5l-12 26q72 33 72 77q0 21 -14.5 31t-43.5 17q-4 1 -9 9t-5 19q0 18 13.5 31t36.5 13z" />
    <glyph glyph-name="hyphen" unicode="-" horiz-adv-x="322" 
d="M293 221h-265v71h265v-71z" />
    <glyph glyph-name="period" unicode="." horiz-adv-x="172" 
d="M84.5 113q23.5 0 39.5 -16.5t16 -40.5t-15.5 -40t-39.5 -16t-39 15.5t-15 40.5t15 41t38.5 16z" />
    <glyph glyph-name="slash" unicode="/" horiz-adv-x="386" 
d="M106 1h-87l262 661h87z" />
    <glyph glyph-name="zero" unicode="0" horiz-adv-x="515" 
d="M471 340q0 -90 -19 -158t-51 -106t-68.5 -56.5t-75.5 -18.5q-40 0 -77 19.5t-68 57t-49.5 100.5t-18.5 141v24q0 78 18 139.5t49 98.5t68.5 56t78.5 19q39 0 76.5 -19.5t68.5 -57t49.5 -99.5t18.5 -140zM374 331q-1 130 -35 221.5t-81 91.5q-44 0 -80.5 -87.5
t-37.5 -225.5q1 -137 37.5 -227.5t80.5 -90.5q30 0 56.5 43.5t43 117t16.5 157.5z" />
    <glyph glyph-name="one" unicode="1" horiz-adv-x="196" 
d="M146 0h-96v650h96v-650z" />
    <glyph glyph-name="two" unicode="2" horiz-adv-x="402" 
d="M358 1h-317q-1 18 -1 32q2 73 26 117.5t72 91.5q120 118 120 273q0 50 -16.5 85.5t-51.5 35.5q-37 0 -58.5 -42.5t-22.5 -118.5l-64 13q0 27 9.5 55t28 53.5t51.5 42t75 16.5q64 0 106.5 -51.5t42.5 -115.5q0 -40 -12 -77t-27 -61t-43.5 -51t-46 -40t-50.5 -36
q-26 -18 -39 -28t-29.5 -25t-23.5 -30t-7 -31v-4h3q58 0 275 -1v-103z" />
    <glyph glyph-name="three" unicode="3" horiz-adv-x="409" 
d="M365 187q0 -49 -17.5 -91t-57.5 -71.5t-96 -29.5q-62 0 -108 51.5t-48 104.5l60 16q12 -71 38.5 -113.5t60 -42.5t55 41t21.5 105q0 82 -24 131t-66 51v24q30 2 51.5 45.5t21.5 93.5q0 44 -6 74t-16.5 44t-19.5 19t-20 5q-34 0 -60 -51t-27 -111l-60 12q9 73 49 117.5
t97 44.5q68 0 108 -48.5t40 -112.5q0 -55 -24 -87t-55 -46q-6 -3 -5 -11q1 -7 7 -8q45 -8 73 -50.5t28 -105.5z" />
    <glyph glyph-name="four" unicode="4" horiz-adv-x="412" 
d="M343 1h-89v164h-226v21l216 470h90l-211 -474h131v230h88v-233h28v-14h-28z" />
    <glyph glyph-name="five" unicode="5" horiz-adv-x="417" 
d="M335 59q-49 -66 -139 -66q-28 0 -53.5 9t-48 27t-37 50t-16.5 74l65 9q1 -21 3.5 -43t10.5 -50t26.5 -45.5t45.5 -17.5h10q30 4 48 32q30 47 21 153q-4 51 -21 89.5t-38.5 58.5t-49 32.5t-47.5 15.5t-40 3q-8 0 -15 -1l18 266h263l1 -100l-248 1l-9 -144h4q13 3 41 3
q26 0 51.5 -3.5t61 -16.5t62 -35t46.5 -62.5t23 -95.5q4 -85 -39 -143z" />
    <glyph glyph-name="six" unicode="6" horiz-adv-x="435" 
d="M390 204q0 -95 -45 -149t-124 -54q-59 0 -100.5 44.5t-59.5 110t-18 143.5q0 89 23 168.5t71.5 133.5t112.5 54q102 0 130 -135l-64 -19q-2 15 -5.5 32t-11.5 42.5t-22.5 41.5t-33.5 16q-30 0 -52 -30q-27 -37 -37.5 -104t-6.5 -120v-10l5 8q37 61 94 61t100.5 -63
t43.5 -171zM227 415q-36 0 -57 -61t-21 -141q0 -79 20.5 -139t56 -60t56.5 59.5t21 137.5q0 45 -7.5 89.5t-25.5 79t-43 35.5z" />
    <glyph glyph-name="seven" unicode="7" horiz-adv-x="384" 
d="M63 1q38 166 101.5 311.5t128.5 239.5l4 6h-264v97h87.5h154.5t91 1v-54q-48 -37 -93.5 -147.5t-72 -233t-32.5 -220.5h-105z" />
    <glyph glyph-name="eight" unicode="8" horiz-adv-x="428" 
d="M383 172q0 -71 -45.5 -123t-124.5 -52q-55 0 -94 26.5t-56.5 65t-17.5 83.5q0 48 20.5 87.5t57.5 61.5l6 3l-6 4q-34 23 -53.5 63t-19.5 88q0 44 16.5 83t54.5 66t91 27q54 0 92.5 -27t55.5 -66t17 -83q0 -48 -19.5 -88t-54.5 -63l-5 -4l6 -3q36 -22 57.5 -62t21.5 -87z
M295 155q0 41 -7.5 76t-26.5 60.5t-48 25.5q-28 0 -47 -27.5t-26.5 -62.5t-7.5 -71q0 -58 22 -102.5t60 -44.5t59.5 44.5t21.5 101.5zM290 476q0 67 -20 117.5t-56 50.5q-28 0 -46.5 -26t-25.5 -62t-7 -80q0 -58 20.5 -101.5t57.5 -43.5q27 0 45 23t25 54.5t7 67.5z" />
    <glyph glyph-name="nine" unicode="9" horiz-adv-x="435" 
d="M391 357q0 -89 -23 -168.5t-71.5 -133.5t-112.5 -54q-102 0 -130 135l64 18q2 -15 5.5 -31.5t11.5 -42t23 -42t33 -16.5q30 0 53 31q26 37 36.5 104t7.5 120l-1 10l-5 -8q-36 -61 -93 -61t-101 63t-44 171q0 95 45 149t124 54q59 0 100.5 -44.5t59.5 -110.5t18 -143z
M208.5 642q-35.5 0 -56.5 -60t-21 -137q0 -46 7.5 -90.5t25.5 -78.5t43 -35q36 0 57 61t21 141q0 78 -20.5 138.5t-56 60.5z" />
    <glyph glyph-name="colon" unicode=":" horiz-adv-x="184" 
d="M90.5 113q23.5 0 39.5 -16.5t16 -40.5t-15.5 -40t-39.5 -16t-39 15.5t-15 40.5t15 41t38.5 16zM91 368q-24 0 -39 15.5t-15 40.5q0 24 15 40.5t38.5 16.5t39.5 -16.5t16 -40.5q0 -25 -15.5 -40.5t-39.5 -15.5z" />
    <glyph glyph-name="semicolon" unicode=";" horiz-adv-x="196" 
d="M97 353q-24 0 -39 16t-15 41q0 24 15.5 40t39 16t39.5 -16t16 -40q0 -25 -16 -41t-40 -16zM85 80q28 0 52 -24.5t24 -69.5q0 -49 -34.5 -82.5t-79.5 -46.5l-12 26q72 33 72 77q0 21 -14.5 31t-43.5 17q-4 1 -9 9t-5 19q0 18 13.5 31t36.5 13z" />
    <glyph glyph-name="less" unicode="&#x3c;" horiz-adv-x="553" 
d="M517 110l-486 222v69l486 221v-43l-421 -190l421 -194v-85z" />
    <glyph glyph-name="equal" unicode="=" horiz-adv-x="552" 
d="M517 347h-482v86h482v-86zM517 166h-482v86h482v-86z" />
    <glyph glyph-name="greater" unicode="&#x3e;" horiz-adv-x="553" 
d="M35 110v43l421 190l-421 195v84l486 -221v-69z" />
    <glyph glyph-name="question" unicode="?" horiz-adv-x="480" 
d="M237 93q8 -9 12 -18t5 -20q-1 -13 -4 -22q-4 -10 -12 -17.5t-18 -11.5t-23 -4q-11 0 -21.5 4t-18.5 10q-9 8 -13 17.5t-4 20.5t4 21t12 18q8 9 19 13.5t22.5 4.5t21 -4.5t18.5 -11.5zM430 571q8 -16 12 -38.5t3 -37.5q-4 -38 -18.5 -67t-35 -46t-44.5 -31t-47.5 -27.5
t-42.5 -29.5t-31 -42t-12 -61v-31h-29v47q0 91 69 144q1 1 11 8.5t13 10t12.5 10.5t13.5 12.5l12 13.5t12 16t9.5 17.5t8 20t4.5 21.5t2 25q0 26 -6 49.5t-19 45t-37 34.5t-57 13q-34 0 -59 -14t-36 -34.5t-15.5 -43.5t-2.5 -42t8 -29h-95q-4 11 -4 22v3q0 19 5 36t15 34
q10 15 22 29q5 5 21.5 18t22.5 16q10 6 21 10t22 7q8 3 22 6q4 1 7.5 1.5t7.5 1.5t8 1.5t7 0.5q7 1 14 1.5t14 0.5h10q2 0 16 -2.5t33.5 -6t29.5 -7.5q31 -12 60 -33t43 -53z" />
    <glyph glyph-name="at" unicode="@" horiz-adv-x="910" 
d="M631 0h-61v27l-5 -3q-47 -29 -102 -29q-41 0 -78 16.5t-67 48.5q-30 33 -45 74q-16 41 -16 86t15.5 86t45.5 73t67 48.5t78 16.5q32 0 59 -8t37 -16l11 -9l99 24v-401q51 2 90 46t55.5 100.5t10.5 107.5q-13 132 -119 220.5t-253 88.5q-25 0 -55.5 -6.5t-66.5 -21.5
t-70.5 -37t-66.5 -55t-55.5 -73t-36 -95t-9.5 -117q3 -48 19 -96.5t48.5 -94.5t77 -81t109.5 -57t141 -22q46 0 97 14t72 24t36 18l14 -25q-94 -61 -248 -61q-57 0 -112.5 14t-108 44.5t-93.5 73.5t-68.5 106.5t-33.5 138.5q-8 87 18 166t82 140q58 63 141 98t176 35
q86 0 161.5 -28t127 -74t83 -103.5t36.5 -117.5q7 -84 -19.5 -153t-83.5 -110t-134 -41zM569 57l1 323q-46 38 -107 38q-48 0 -70 -32q-23 -33 -27 -73q-5 -40 -5 -93q0 -54 5 -94q4 -40 27 -73q22 -32 70 -32q60 0 106 36z" />
    <glyph glyph-name="A" unicode="A" horiz-adv-x="546" 
d="M282 662l266 -662h-85l-65 162h-317l-65 -162h-18l258 662h26zM84 178h307l-154 396z" />
    <glyph glyph-name="B" unicode="B" horiz-adv-x="561" 
d="M541 209v-14q0 -82 -63.5 -138.5t-161.5 -56.5h-266v662h234q91 0 140 -38t49 -103q0 -41 -22.5 -74.5t-58.5 -48.5q65 -15 107 -68t42 -121zM128 599v-195h186q34 0 57.5 23.5t23.5 57.5v33q0 34 -23.5 57.5t-57.5 23.5h-186zM464 218v15q0 64 -45.5 109.5t-109.5 45.5
h-181v-325h181q64 0 109.5 45.5t45.5 109.5z" />
    <glyph glyph-name="C" unicode="C" horiz-adv-x="648" 
d="M602 213l36 -9q-2 -4 -5 -12t-15 -30.5t-26.5 -43t-39.5 -45.5t-54 -43t-70.5 -30t-87.5 -12q-141 0 -228.5 91t-87.5 251q0 72 23.5 134.5t62 105.5t86 70t95.5 32q46 5 88 -1t72.5 -20.5t56.5 -33t43 -38t29.5 -36t17.5 -27.5l5 -10l-95 -39q-2 6 -7 16.5t-21.5 36
t-35.5 45.5t-49.5 36t-63.5 16q-96 0 -158.5 -77.5t-62.5 -209.5q0 -69 23 -123.5t61 -87.5t84.5 -50t97.5 -17q44 0 83.5 16.5t64.5 40t43.5 47t26.5 40.5z" />
    <glyph glyph-name="D" unicode="D" horiz-adv-x="608" 
d="M273 662q128 0 219.5 -91t91.5 -220v-40q0 -129 -91.5 -220t-220.5 -91h-222v662h223zM506 309v45q0 101 -72 173t-173 72h-133v-536h132q102 0 174 72t72 174z" />
    <glyph glyph-name="E" unicode="E" horiz-adv-x="491" 
d="M128 63h356v-63h-434v662h424v-63h-346v-195h246v-16h-246v-325z" />
    <glyph glyph-name="F" unicode="F" horiz-adv-x="472" 
d="M474 599h-346v-195h246v-16h-246v-388h-78v662h424v-63z" />
    <glyph glyph-name="G" unicode="G" horiz-adv-x="654" 
d="M359 347h265v-249q-4 -5 -11.5 -12t-34 -25t-57 -32t-79.5 -25.5t-103 -11.5q-60 0 -116 22.5t-101 64t-72 107t-27 144.5q0 72 23.5 134.5t62 105.5t86 70t95.5 32q46 5 88 -1t72.5 -20.5t56.5 -33t43 -38t29.5 -36t17.5 -27.5l5 -10l-95 -39q-2 6 -7 16.5t-21.5 36
t-35.5 45.5t-49.5 36t-63.5 16q-96 0 -158.5 -77.5t-62.5 -209.5q0 -69 23 -123.5t61 -87.5t84.5 -50t97.5 -17q29 0 58 6t49 15.5t36 18.5t24 15l8 7v217h-191v16z" />
    <glyph glyph-name="H" unicode="H" horiz-adv-x="575" 
d="M447 662h77v-662h-77v323h-319v-323h-78v662h78v-323h319v323z" />
    <glyph glyph-name="I" unicode="I" horiz-adv-x="178" 
d="M128 0h-78v662h78v-662z" />
    <glyph glyph-name="J" unicode="J" horiz-adv-x="392" 
d="M268 662h78v-500q0 -19 -5 -40t-17.5 -44.5t-30.5 -42t-47.5 -31t-65.5 -12.5q-44 0 -79 10t-53.5 24t-31 28t-15.5 24l-4 9l72 37q1 -4 3 -10.5t10.5 -22.5t19 -28.5t29.5 -23t40 -10.5q28 0 48 12t30 30.5t14.5 37t4.5 37.5v516z" />
    <glyph glyph-name="K" unicode="K" horiz-adv-x="537" 
d="M234 419l308 -419h-110l-265 357l-39 -36v-321h-78v662l78 1v-320l339 319h21z" />
    <glyph glyph-name="L" unicode="L" horiz-adv-x="462" 
d="M128 63h338v-63h-416v662h78v-599z" />
    <glyph glyph-name="M" unicode="M" horiz-adv-x="688" 
d="M557 662h80v-662h-77v613l-206 -613h-20l-206 613v-613h-78v662h81l213 -634z" />
    <glyph glyph-name="N" unicode="N" horiz-adv-x="572" 
d="M444 662h78v-662h-24l-370 547v-547h-78v662h22l372 -548v548z" />
    <glyph glyph-name="O" unicode="O" horiz-adv-x="726" 
d="M364 675q64 0 124 -22.5t108.5 -64.5t77.5 -109.5t29 -149.5q0 -68 -19.5 -125.5t-52.5 -96.5t-77 -66.5t-92 -40.5t-98 -13t-98.5 13t-92.5 41t-77.5 67.5t-53 97.5t-19.5 127q0 151 95 246.5t246 95.5zM364 63q54 0 104 16.5t92 48t67.5 84t25.5 118.5q0 64 -25 116
t-66 85t-92 50.5t-106 17.5q-129 0 -210 -74.5t-81 -191.5q0 -67 25.5 -120t67.5 -85t93 -48.5t105 -16.5z" />
    <glyph glyph-name="P" unicode="P" horiz-adv-x="507" 
d="M285 662q38 0 73 -8.5t66.5 -27t50.5 -53.5t19 -82q0 -43 -13 -76t-33 -52.5t-48.5 -32.5t-56 -17.5t-58.5 -4.5h-157v-308h-78v662h235zM290 324q52 0 89.5 37t36.5 90v22q0 52 -37 89t-89 37h-162v-275h162z" />
    <glyph glyph-name="Q" unicode="Q" horiz-adv-x="729" 
d="M703 329q0 -177 -124 -271l91 -53l-32 -55l-121 70q-72 -33 -153 -33q-50 0 -98.5 13t-92.5 41t-77.5 67.5t-53 97.5t-19.5 127q0 151 95 246.5t246 95.5q64 0 124 -22.5t108.5 -64.5t77.5 -109.5t29 -149.5zM364 63q54 0 104 16.5t92 48t67.5 84t25.5 118.5
q0 64 -25 116t-66 85t-92 50.5t-106 17.5q-129 0 -210 -74.5t-81 -191.5q0 -67 25.5 -120t67.5 -85t93 -48.5t105 -16.5z" />
    <glyph glyph-name="R" unicode="R" horiz-adv-x="555" 
d="M371 284q14 -22 59 -93t82.5 -131l37.5 -60h-91q-167 253 -202 308h-129v-308h-78v662h235q38 0 73 -8.5t66.5 -27t50.5 -53.5t19 -82q0 -44 -12.5 -77t-35.5 -53.5t-49 -32t-58 -16.5q22 -12 32 -28zM128 324h162q52 0 89.5 37t37.5 90v22q0 52 -37.5 89t-89.5 37h-162
v-275z" />
    <glyph glyph-name="S" unicode="S" horiz-adv-x="543" 
d="M337 336q3 -1 19.5 -5t23.5 -6t24 -7.5t26 -9.5t24 -11.5t23 -15t19 -18t16.5 -22.5t9.5 -27t4 -32q0 -77 -71.5 -133t-183.5 -56q-148 0 -233 101l72 56q2 -5 5.5 -13.5t18 -29.5t31.5 -37t45.5 -29t60.5 -13q39 0 72.5 18.5t54.5 47t30 63t2.5 67t-32.5 59t-69 37.5
q-58 14 -130 35q-46 13 -75 24.5t-56 29.5t-39 43t-12 60q0 25 15.5 52.5t44.5 53t79 42t112 16.5q40 0 77.5 -10t62 -24t44 -28t28.5 -24l9 -10l-68 -58q-1 4 -4 12t-16.5 28t-30.5 35.5t-49 28t-70 12.5q-39 0 -69.5 -17t-46 -43.5t-18 -59t9.5 -62.5t40.5 -56t70.5 -37
q55 -16 99 -27z" />
    <glyph glyph-name="T" unicode="T" horiz-adv-x="513" 
d="M-4 662h521v-63h-222v-599h-77v599h-222v63z" />
    <glyph glyph-name="U" unicode="U" horiz-adv-x="586" 
d="M469 662h73v-410q0 -65 -15 -113.5t-38.5 -76.5t-58 -45t-66.5 -22.5t-71 -5.5t-70 4.5t-66 20.5t-58.5 42.5t-39.5 74.5t-16 113v418h74v-412q0 -111 47.5 -162t127.5 -51q45 0 76 9.5t54.5 33t35 65.5t11.5 104v413z" />
    <glyph glyph-name="V" unicode="V" horiz-adv-x="547" 
d="M530 662h18l-258 -662h-26l-266 662h85l226 -573z" />
    <glyph glyph-name="W" unicode="W" horiz-adv-x="887" 
d="M803 662h85l-266 -662h-26l-153 393l-153 -393h-26l-266 662h85l225 -573l127 326h17l126 -326z" />
    <glyph glyph-name="X" unicode="X" horiz-adv-x="557" 
d="M300 366l261 -366h-91l-218 306l-231 -306h-18l240 319l-240 343h91l197 -283l208 283h17z" />
    <glyph glyph-name="Y" unicode="Y" horiz-adv-x="500" 
d="M489 662h17l-217 -317v-345h-78v335l-218 327h91l197 -302z" />
    <glyph glyph-name="Z" unicode="Z" horiz-adv-x="537" 
d="M534 653l-473 -590h453v-63h-514v11l474 588h-415v63h475v-9z" />
    <glyph glyph-name="bracketleft" unicode="[" horiz-adv-x="167" 
d="M217 675h-101v-714h101v-66h-167v846h167v-66z" />
    <glyph glyph-name="backslash" unicode="\" horiz-adv-x="386" 
d="M365 0h-86l-262 661h87z" />
    <glyph glyph-name="bracketright" unicode="]" horiz-adv-x="167" 
d="M-51 741h167v-846h-167v66h101v714h-101v66z" />
    <glyph glyph-name="underscore" unicode="_" horiz-adv-x="615" 
d="M565 -110h-515v57h515v-57z" />
    <glyph glyph-name="a" unicode="a" horiz-adv-x="483" 
d="M247 495q84 0 139.5 -49t55.5 -130v-311h-77v68q-3 -3 -7.5 -8t-21 -17.5t-35.5 -22.5t-48.5 -19t-61.5 -10q-76 -3 -122.5 38t-46.5 101q0 41 21.5 77t57 58.5t80.5 37t91.5 13t91.5 -13.5q-2 65 -31.5 105t-80.5 40q-73 0 -121 -100l-79 44q62 99 195 99zM365 144v152
q-43 12 -88.5 8t-83.5 -17.5t-64.5 -42.5t-30.5 -67q-5 -53 25.5 -89.5t93.5 -36.5q29 0 55 9.5t42.5 23t28.5 27.5t17 23z" />
    <glyph glyph-name="b" unicode="b" horiz-adv-x="508" 
d="M122 461q47 31 98 39.5t97 -6.5t83 -47.5t59 -86.5t22 -121t-21 -118t-54.5 -78t-70.5 -39.5t-74 -8.5q-27 3 -51 12.5t-39 21t-26.5 22.5t-16.5 19l-4 8v-73h-78v662h76v-206zM244 18q69 0 112 56t43 164q0 93 -50 156.5t-120 63.5q-25 0 -51 -6.5t-40 -13.5l-14 -6
v-338q2 -3 6 -8t16.5 -18t26 -23t33 -18.5t38.5 -8.5z" />
    <glyph glyph-name="c" unicode="c" horiz-adv-x="496" 
d="M456 153l20 -3q-2 -6 -6.5 -16.5t-22.5 -37t-40 -47t-61 -37t-85 -16.5q-42 0 -83.5 16.5t-76 47t-55.5 79t-21 106.5q0 112 66 180t174 68q80 0 135.5 -45.5t73.5 -106.5h-74q-12 42 -50.5 71.5t-95.5 29.5q-27 0 -53 -10.5t-50 -32t-38.5 -61.5t-14.5 -93
q0 -34 11 -66.5t32.5 -61t60 -46t89.5 -17.5q35 0 64.5 10.5t47.5 25t30.5 29t17.5 24.5z" />
    <glyph glyph-name="d" unicode="d" horiz-adv-x="508" 
d="M385 667h77v-662h-78v73q-2 -3 -5.5 -8t-15.5 -18t-26.5 -23.5t-39 -20.5t-50.5 -13q-37 -4 -74.5 8.5t-70.5 39.5t-54 78t-21 118t22 121t59 86.5t82.5 47.5t97 6.5t97.5 -39.5v206zM384 94v338q-50 26 -105 26q-70 0 -120 -63.5t-50 -156.5q0 -108 42.5 -164t111.5 -56
q19 0 38.5 8t33.5 19t25.5 22t17.5 19z" />
    <glyph glyph-name="e" unicode="e" horiz-adv-x="504" 
d="M291 55q35 0 64.5 10.5t47.5 25t30.5 29t17.5 25.5l5 10l20 -4q-2 -6 -6.5 -16.5t-22.5 -37t-40 -46.5t-61 -37t-85 -17q-42 0 -83.5 17t-76 47t-55.5 78.5t-21 106.5q0 112 66 180t174 68q50 0 92.5 -19t68.5 -49t40.5 -64t14.5 -65h-380q-5 -20 -2 -45.5t8 -52.5
t20.5 -53t35.5 -46t53.5 -32.5t74.5 -12.5zM254 443q-55 0 -97 -33t-54 -97h302q0 48 -41.5 89t-109.5 41z" />
    <glyph glyph-name="f" unicode="f" horiz-adv-x="268" 
d="M156 556v-71h112v-16h-112v-464h-78v464h-72v16h72v62q0 55 32.5 93t88.5 38q26 0 52.5 -10.5t39.5 -21.5l13 -10l-40 -62q-3 7 -8.5 17.5t-22 28t-31.5 17.5q-46 0 -46 -81z" />
    <glyph glyph-name="g" unicode="g" horiz-adv-x="438" 
d="M306 74q58 -3 89 -32.5t28 -82.5q-2 -26 -15.5 -51.5t-39.5 -49t-71.5 -35t-102.5 -5.5q-53 6 -91.5 26t-55.5 46.5t-20 54t13 52t45 38.5q-41 20 -41 58q0 24 17.5 42.5t50.5 39.5q-82 51 -82 141q0 70 52.5 122t126.5 55l176 36v-38h-137q47 -5 81.5 -28t51 -54.5
t19 -68.5t-9 -71t-38.5 -63t-65 -42q-46 -14 -82 -12.5t-58 10.5l-22 9q-9 -6 -16.5 -18t-10 -26t8.5 -25.5t36 -13.5q78 -9 163 -14zM45 323q0 -41 49.5 -70.5t119 -29.5t119 29.5t49.5 70.5t-49.5 70t-119 29t-119 -29t-49.5 -70zM215 -130q73 0 128 21t64 54
q6 22 -17.5 41.5t-76.5 22.5q-183 10 -216 21q-47 -18 -45 -61q3 -47 58 -76q43 -23 105 -23z" />
    <glyph glyph-name="h" unicode="h" horiz-adv-x="485" 
d="M278 492q84 0 125 -48.5t41 -132.5v-308h-78v304q0 156 -121 156q-26 0 -48.5 -13t-35.5 -30.5t-22 -35.5t-12 -31l-4 -13v-337h-77v664h77v-286l5 12.5t16 26.5t29 33.5t44.5 26.5t60.5 12z" />
    <glyph glyph-name="i" unicode="i" horiz-adv-x="168" 
d="M84 589q-16 0 -27.5 11t-11.5 27q0 17 11 28.5t28 11.5t28 -11t11 -29q0 -16 -11.5 -27t-27.5 -11zM123 6h-78v479h78v-479z" />
    <glyph glyph-name="j" unicode="j" horiz-adv-x="170" 
d="M86 589q-16 0 -27.5 11t-11.5 27q0 17 11 28.5t28 11.5t28 -11t11 -29q0 -16 -11.5 -27t-27.5 -11zM46 -67v552h78v-542q0 -56 -32.5 -93.5t-87.5 -37.5q-27 0 -53.5 10.5t-39.5 20.5l-13 11l40 61q3 -7 8.5 -17.5t22 -28t31.5 -17.5q46 0 46 81z" />
    <glyph glyph-name="k" unicode="k" horiz-adv-x="434" 
d="M220 311l211 -305h-96l-171 251l-41 -41v-210h-78v661l78 1v-430l246 247h22z" />
    <glyph glyph-name="l" unicode="l" horiz-adv-x="168" 
d="M45 667l78 1v-662h-78v661z" />
    <glyph glyph-name="m" unicode="m" horiz-adv-x="735" 
d="M528 492q84 0 125 -48.5t41 -132.5v-308h-78v304q0 156 -121 156q-59 0 -96 -61q16 -40 16 -91v-308h-77v304q0 156 -121 156q-57 0 -94 -56v-404h-77v480h77v-53q49 62 127 62q102 0 142 -75q50 75 136 75z" />
    <glyph glyph-name="n" unicode="n" horiz-adv-x="485" 
d="M278 492q84 0 125 -48.5t41 -132.5v-308h-78v304q0 156 -121 156q-26 0 -48.5 -13t-35.5 -30.5t-22 -35.5t-12 -31l-4 -13v-337h-77v480h77v-102l5 12.5t16 26.5t29 33.5t44.5 26.5t60.5 12z" />
    <glyph glyph-name="o" unicode="o" horiz-adv-x="508" 
d="M254 497q44 0 84 -14.5t72.5 -43.5t52 -77.5t19.5 -109.5q0 -57 -20 -106t-52.5 -81t-73 -50t-82.5 -18q-43 0 -82.5 15t-73 44t-53.5 77t-20 109q0 58 20 107t52.5 81t73.5 49.5t83 17.5zM252.5 79q82.5 0 140.5 49t58 119t-58 119.5t-140.5 49.5t-141 -49.5
t-58.5 -119.5t58.5 -119t141 -49z" />
    <glyph glyph-name="p" unicode="p" horiz-adv-x="508" 
d="M261 494q37 4 74 -8t70.5 -39.5t54.5 -78.5t21 -117q0 -67 -22 -121.5t-59 -87t-83 -47.5t-97 -6t-98 39v-205l-76 -1v663h78v-73q1 3 4.5 8t16 18t27 23.5t38.5 20.5t51 12zM229 31q70 0 120 63.5t50 157.5q0 108 -43 163.5t-112 55.5q-19 0 -38.5 -7.5t-33.5 -19
t-25.5 -22.5t-17.5 -19l-6 -8v-337q51 -27 106 -27z" />
    <glyph glyph-name="q" unicode="q" horiz-adv-x="508" 
d="M384 485h78v-663l-77 1v205q-46 -30 -97.5 -39t-97 6t-82.5 47.5t-59 87t-22 121.5q0 66 21 117t54 78.5t70.5 39.5t74.5 8q26 -3 50 -12t39 -21t26.5 -23t16.5 -19l5 -7v73zM384 58v337q-2 4 -6 9t-17 18t-26 23t-33 18t-39 8q-69 0 -111.5 -55.5t-42.5 -163.5
q0 -94 50 -157.5t120 -63.5q24 0 50.5 6.5t40.5 13.5z" />
    <glyph glyph-name="r" unicode="r" horiz-adv-x="332" 
d="M240 494q43 0 87 -20l-35 -87q-3 3 -7 7.5t-17 16.5t-25.5 20t-29 13.5t-30.5 2.5q-38 -10 -60 -55v-387h-78v480h78v-64q2 3 5.5 8t16 17.5t25.5 22t32 17.5t38 8z" />
    <glyph glyph-name="s" unicode="s" horiz-adv-x="414" 
d="M255 247q0 -1 16 -4.5t20 -5t19.5 -6.5t21.5 -8.5l18 -10.5t18 -14.5t13 -17t10 -21.5t3 -26q0 -56 -52.5 -97.5t-135.5 -41.5q-108 0 -170 75l52 40q2 -3 4.5 -9t13 -21.5t23 -27.5t33.5 -21.5t44 -9.5q35 0 63.5 19t41.5 47t14.5 58t-18.5 55.5t-58 34.5q-42 11 -95 26
q-70 20 -102 44t-32 72q0 42 49 81t135 39q30 0 57.5 -7t45.5 -17.5t32.5 -20.5t20.5 -17l7 -8l-50 -43q-1 4 -3 9.5t-12 20.5t-22.5 26t-36 20.5t-51.5 9.5q-43 0 -69.5 -27t-29.5 -61t20.5 -68t69.5 -47q39 -11 72 -19z" />
    <glyph glyph-name="t" unicode="t" horiz-adv-x="251" 
d="M242 469h-98v-375q0 -23 14 -36t37 -13q11 0 22 2t16 3l6 2l3 -44q-81 -20 -128 4.5t-47 81.5v375h-56v16h56v76l77 40v-116h98v-16z" />
    <glyph glyph-name="u" unicode="u" 
d="M361 485h77v-480h-78v102q-1 -4 -4.5 -11.5t-16 -27t-29 -34t-44.5 -26.5t-61 -12q-84 0 -124.5 48.5t-40.5 132.5v308h77v-304q0 -155 121 -155q27 0 49.5 12.5t35.5 30.5t22 36t12 30l3 13z" />
    <glyph glyph-name="v" unicode="v" horiz-adv-x="461" 
d="M437 485h18l-188 -480h-82l-179 480h83l171 -460z" />
    <glyph glyph-name="w" unicode="w" horiz-adv-x="717" 
d="M628 485h83l-179 -480h-83l-91 233l-91 -233h-82l-179 480h83l171 -460l90 234h17l90 -234z" />
    <glyph glyph-name="x" unicode="x" horiz-adv-x="437" 
d="M245 271l188 -266h-90l-143 202l-142 -202h-17l151 213l-188 267h90l143 -202l143 202h16z" />
    <glyph glyph-name="y" unicode="y" horiz-adv-x="460" 
d="M437 485h18l-214 -548q-21 -55 -69.5 -88t-106.5 -33h-16v95l107 -1q28 0 50.5 16t32.5 41l15 38h-69l-179 480h83l171 -460z" />
    <glyph glyph-name="z" unicode="z" horiz-adv-x="412" 
d="M397 476l-314 -394h314v-77h-385v11l315 391h-304v78h374v-9z" />
    <glyph glyph-name="braceleft" unicode="{" horiz-adv-x="237" 
d="M291 730q-4 1 -11 1t-24.5 -1.5t-31.5 -6.5t-25 -18.5t-11 -34.5v-112q-1 -2 0.5 -21t-3 -51.5t-11 -64t-24.5 -58t-43 -33.5q23 -6 39.5 -26.5t24 -46.5t12 -51t5.5 -42v-17v-154q0 -20 10.5 -34t26 -19t30.5 -7t26 -1l10 1v-38h-48q-33 0 -58.5 16t-38 40t-18.5 47
t-6 44q0 122 -2 148q-1 28 -11 51t-23 35.5t-25.5 21.5t-20.5 11l-9 3v29q3 1 9 3.5t20.5 12.5t26 23t22 37t11.5 52q2 26 2 148q0 21 6 44t18.5 47t38 40t58.5 16h48v-34z" />
    <glyph glyph-name="verticalbar" unicode="|" horiz-adv-x="169" 
d="M119 -110h-69v851h69v-851z" />
    <glyph glyph-name="braceright" unicode="}" horiz-adv-x="237" 
d="M116 469q5 -83 74 -116q13 -6 15 -6v-29q-3 -1 -8.5 -3.5t-20.5 -12.5t-26.5 -23t-21.5 -37t-12 -52q-1 -26 -1 -148q0 -21 -6 -44t-19 -47t-38 -40t-59 -16h-48v34q4 -1 11 -1t25 1.5t31.5 6.5t24.5 18.5t11 34.5v112q2 2 0 21t2.5 51.5t11 64t24.5 58t43 33.5
q-22 6 -39 26.5t-24.5 46.5t-12 51t-4.5 42l-1 17v154q0 20 -10.5 34t-25.5 19t-30.5 7t-25.5 1l-11 -1v38h48q34 0 59 -16t38 -40t19 -47t6 -44q0 -122 1 -148z" />
    <glyph glyph-name="nonbreakingspace" unicode="&#xa0;" horiz-adv-x="314" 
 />
    <glyph glyph-name="exclamdown" unicode="&#xa1;" horiz-adv-x="197" 
d="M150 529q4 -10 4 -21t-4 -20.5t-12 -17.5q-8 -10 -18.5 -14t-22 -4t-21.5 4t-18 12t-13 18q-4 8 -4 20t4 22t12 17.5t18 11.5t23 4q11 0 21 -4t18 -11q9 -7 13 -17zM88 399h27l31 -475q1 -10 -5.5 -17t-16.5 -7h-53q-10 0 -16.5 7t-5.5 17z" />
    <glyph glyph-name="cent" unicode="&#xa2;" horiz-adv-x="507" 
d="M457 167l17 -1q-19 -55 -51 -88q-36 -36 -74 -53q-41 -19 -86 -19q-28 0 -57 8l-45 -161l-31 8l46 164q-40 19 -72 53q-32 36 -49 80q-17 45 -17 94t17 94t49 80q33 35 73.5 53.5t85.5 18.5q22 0 44 -5l44 159l30 -9l-44 -159q10 -3 12 -4q41 -19 74 -54q7 -8 20 -27
q-2 -2 -19 -17q-42 54 -95 75l-102 -369q18 -21 38 -33q18 -12 45 -12t51 12q29 14 52 40.5t32 43.5t12 28zM203 121l96 345q-61 12 -122 -14q-48 -21 -56 -63q-9 -43 4 -85q12 -43 35 -96q21 -49 43 -87z" />
    <glyph glyph-name="sterling" unicode="&#xa3;" horiz-adv-x="541" 
d="M494 56l18 -34q-4 -2 -10.5 -5t-29.5 -9t-48.5 -8t-66 4t-82.5 22q-26 10 -57.5 10.5t-57.5 -5.5t-48 -14t-34 -14l-13 -7l-29 62q3 2 8.5 6.5t20 19t27.5 31t26.5 41.5t20.5 51t7 60t-11 68h-78v32h67q-43 142 2 228t160 86q20 0 38.5 -2t47 -11.5t49.5 -26t39.5 -48.5
t24.5 -75l-52 -11q0 37 -10.5 67t-28 47t-40 28t-46 11t-47.5 -4q-39 -10 -58.5 -40t-20.5 -65.5t6.5 -75t17.5 -67t18 -41.5h136v-32h-125q9 -42 5.5 -81t-18.5 -74.5t-31 -60.5t-31 -40q29 8 77.5 -2.5t89.5 -24t89.5 -16.5t77.5 20z" />
    <glyph glyph-name="yen" unicode="&#xa5;" horiz-adv-x="581" 
d="M340 221v-15h129v-31h-129v-59h129v-32h-129v-84h-109v84h-116v32h116v59h-116v31h116v15l-218 435h123l199 -390l198 390h29z" />
    <glyph glyph-name="section" unicode="&#xa7;" horiz-adv-x="467" 
d="M307 195q39 -24 61 -45q37 -38 37 -94q0 -46 -22.5 -84.5t-64 -60.5t-97.5 -22q-53 0 -103.5 24.5t-73.5 71.5l-1 2l13 19l2 -4q21 -43 67 -66q47 -23 96 -23q52 0 82 27q29 26 29 73q0 37 -30 66q-31 30 -98 60q-58 27 -91 48q-34 21 -52 49q-18 29 -18 69
q0 50 24.5 86.5t64.5 54.5q19 9 40 13q-24 13 -41 24q-34 21 -52 49q-18 29 -18 69q0 50 24.5 86t64.5 54.5t87 18.5q54 0 101 -26q48 -27 68 -73l1 -2l-14 -19l-2 4q-19 43 -62.5 67.5t-89.5 24.5q-54 0 -84 -23q-30 -22 -30 -66q0 -25 14 -44q14 -18 38 -32q25 -15 73 -39
l23 -12q76 -38 113 -74q37 -38 37 -94q0 -47 -23 -85q-22 -38 -64 -60q-12 -6 -29 -12zM276 213q28 7 45 22q30 26 30 74q0 37 -31 66t-98 60q-2 1 -5.5 2.5t-5.5 2.5q-47 -2 -74 -22q-30 -23 -30 -67q0 -25 14 -43q14 -19 38 -33t73 -39l23 -12q5 -2 21 -11z" />
    <glyph glyph-name="copyright" unicode="&#xa9;" horiz-adv-x="752" 
d="M376 675q91 0 168.5 -45t122.5 -122t45 -168t-45 -168.5t-122.5 -122.5t-168.5 -45t-168.5 45t-122.5 122.5t-45 168.5t45 168t122.5 122t168.5 45zM375.5 43q122.5 0 209.5 87t87 209.5t-87 209.5t-209.5 87t-209.5 -87t-87 -209.5t87 -209.5t209.5 -87zM459 183
q23 11 41.5 32.5t25 34.5t9.5 22h13q-15 -44 -40 -70q-28 -29 -58 -42q-33 -15 -68.5 -15t-67.5 14.5t-58 42.5q-26 29 -39 64t-13 74t13 74.5t39 62.5q26 28 58 42.5t67.5 14.5t68 -14.5t58.5 -42.5q5 -6 16 -22q-7 -5 -16 -13q-26 35 -57 52.5t-60 17t-46 -4t-31 -10.5
q-39 -16 -45 -49q-7 -34 3 -67q10 -34 28 -77q19 -42 36 -72q18 -30 47 -49q15 -9 36 -9t40 9z" />
    <glyph glyph-name="guillemotleft" unicode="&#xab;" horiz-adv-x="393" 
d="M239 302l120 -192h-73l-120 192l120 192h72zM225 494l-119 -192l120 -192h-73l-120 192l120 192h72z" />
    <glyph glyph-name="softhyphen" unicode="&#xad;" horiz-adv-x="0" 
 />
    <glyph glyph-name="registered" unicode="&#xae;" horiz-adv-x="458" 
d="M228.5 831q80.5 0 138 -57t57.5 -137.5t-57.5 -138t-138 -57.5t-137.5 57.5t-57 138t57 137.5t137.5 57zM229 463q72 0 122.5 51t50.5 122.5t-50.5 122t-122.5 50.5t-122.5 -50.5t-50.5 -122t50.5 -122.5t122.5 -51zM209 628q9 -20 42 -45.5t61 -42.5l28 -16h-47
q-33 0 -66 39.5t-42 67.5q0 1 -1.5 1t-1.5 -1v-106q0 -1 -1 -1h-36q-1 0 -1 1v228q0 2 1 2h92q23 0 38.5 -9.5t23.5 -24t8 -30.5q0 -20 -13 -38q-11 -14 -27 -21q-11 -4 -35 -4h-13h-10zM183 653q11 -16 43 -16q11 0 20.5 7.5t15.5 19.5t6 28q0 15 -6 27t-15.5 19t-20.5 7
h-42q-2 0 -2 -1v-90z" />
    <glyph glyph-name="degree" unicode="&#xb0;" horiz-adv-x="308" 
d="M153 683q50 0 84.5 -35t34.5 -86q0 -53 -34 -87t-85 -34t-84 34t-33 87q0 51 33.5 86t83.5 35zM153 496q28 0 46 18t18 48q0 28 -18.5 47t-45.5 19q-28 0 -45 -18.5t-17 -47.5q0 -30 17 -48t45 -18z" />
    <glyph glyph-name="periodcentered" unicode="&#xb7;" horiz-adv-x="172" 
d="M84.5 333q23.5 0 39.5 -16.5t16 -40.5q0 -25 -15.5 -40.5t-39.5 -15.5t-39 15.5t-15 40.5q0 24 15 40.5t38.5 16.5z" />
    <glyph glyph-name="guillemotright" unicode="&#xbb;" horiz-adv-x="392" 
d="M238 494l120 -192l-120 -192h-72l119 192l-120 192h73zM106 494l119 -192l-120 -192h-72l119 192l-120 192h74z" />
    <glyph glyph-name="questiondown" unicode="&#xbf;" horiz-adv-x="472" 
d="M239 480q-8 8 -12 18q-4 8 -5 20q1 12 4 22q4 10 12 17.5t18.5 11.5t22.5 4t22 -4t18 -11q9 -7 13 -17t4 -21t-4 -20.5t-12 -17.5q-8 -10 -18.5 -14t-22 -4t-21.5 4t-19 12zM443 88q4 -11 4 -23v-3q0 -19 -5 -36t-15 -33t-22 -29q-5 -6 -21.5 -18.5t-22.5 -16.5
q-10 -5 -21 -9q-11 -5 -22 -8q-6 -1 -22 -5l-8 -2q-3 0 -7 -1t-8 -1.5t-7 -0.5q-7 -1 -14 -1.5t-14 -0.5h-10q-2 0 -16 2t-33.5 6t-28.5 8q-32 12 -61 32.5t-43 53.5q-7 16 -11.5 38.5t-3.5 37.5q4 38 18.5 66.5t35 46t44.5 31.5t47.5 27.5t42.5 29.5t31 42t12 61v31h29v-47
q0 -91 -68 -144q-2 -1 -12 -8.5t-13 -10t-12.5 -11t-13.5 -12.5t-12 -13.5t-11.5 -16t-9.5 -17t-8.5 -20t-4.5 -21.5t-2 -25q0 -26 6.5 -50t19.5 -45.5t37 -34.5t56 -13q34 0 59 14t36 34.5t15.5 44t2.5 42t-7 29.5h94z" />
    <glyph glyph-name="Agrave" unicode="&#xc0;" horiz-adv-x="548" 
d="M291 705h-33l-108 123h84zM283 665l266 -663h-85l-65 163h-317l-65 -163h-18l258 663h26zM85 180h307l-154 396z" />
    <glyph glyph-name="Aacute" unicode="&#xc1;" horiz-adv-x="548" 
d="M389 828l-107 -123h-34l58 123h83zM283 665l266 -663h-85l-65 163h-317l-65 -163h-18l258 663h26zM85 180h307l-154 396z" />
    <glyph glyph-name="Acircumflex" unicode="&#xc2;" horiz-adv-x="548" 
d="M275 793l-52 -88h-54l76 123h60l75 -123h-53zM283 665l266 -663h-85l-65 163h-317l-65 -163h-18l258 663h26zM85 180h307l-154 396z" />
    <glyph glyph-name="Atilde" unicode="&#xc3;" horiz-adv-x="548" 
d="M220 751q-32 0 -55 -32v49q2 3 6.5 7t22 11t37.5 7q22 0 54.5 -15t51.5 -15q11 0 24.5 7.5t21.5 15.5l8 7v-47q-18 -15 -30 -19t-39 -4q-16 -1 -51 13.5t-51 14.5zM283 665l266 -663h-85l-65 163h-317l-65 -163h-18l258 663h26zM85 180h307l-154 396z" />
    <glyph glyph-name="Adieresis" unicode="&#xc4;" horiz-adv-x="548" 
d="M216 705q-20 0 -32.5 13t-12.5 34q0 20 13 33.5t32.5 13.5t32.5 -13.5t13 -33.5q0 -21 -13 -34t-33 -13zM337 705q-20 0 -32.5 13t-12.5 34q0 20 12.5 33.5t32 13.5t33 -13.5t13.5 -33.5q0 -21 -13 -34t-33 -13zM283 665l266 -663h-85l-65 163h-317l-65 -163h-18l258 663
h26zM85 180h307l-154 396z" />
    <glyph glyph-name="Aring" unicode="&#xc5;" horiz-adv-x="548" 
d="M262.5 680q-33.5 0 -57 23.5t-23.5 57t23.5 57t57 23.5t57 -23.5t23.5 -57t-23.5 -57t-57 -23.5zM262 802q-17 0 -29 -12t-12 -29.5t12 -29.5t29 -12t29.5 12t12.5 29.5t-12.5 29.5t-29.5 12zM283 665l266 -663h-85l-65 163h-317l-65 -163h-18l258 663h26zM85 180h307
l-154 396z" />
    <glyph glyph-name="AE" unicode="&#xc6;" horiz-adv-x="704" 
d="M340 390v-325h356v-63h-434v163h-180l-65 -163h-18l258 663h429v-63h-346v-196h246v-16h-246zM262 180v458l-177 -458h177z" />
    <glyph glyph-name="Ccedilla" unicode="&#xc7;" horiz-adv-x="647" 
d="M638 206q-2 -4 -5 -11.5t-14.5 -30t-26 -43t-39.5 -45t-53.5 -42.5t-69.5 -30.5t-87 -13.5l-1 -16l9 -3t20 -10t24.5 -18.5t17 -28.5t2.5 -39q-5 -28 -24 -45t-42.5 -21.5t-46.5 -5.5t-38 1l-15 2l3 45q5 0 12 -1t26.5 -1.5t34.5 1.5t29 10.5t16 22.5q4 22 -17 38t-43 20
l-23 5l6 47q-122 15 -195.5 104.5t-73.5 234.5q0 72 23.5 135t62 105.5t86 69.5t95.5 32q46 6 88 -0.5t72.5 -21t56.5 -33t43 -38t29.5 -36t17.5 -26.5l5 -11l-95 -38q-2 6 -7 16t-21.5 35.5t-35.5 45.5t-49.5 36t-63.5 16q-96 0 -158.5 -77.5t-62.5 -209.5q0 -69 23 -123.5
t61 -87.5t84.5 -50t97.5 -17q44 0 83.5 16.5t64.5 40t43.5 47.5t26.5 40l8 17z" />
    <glyph glyph-name="Egrave" unicode="&#xc8;" horiz-adv-x="492" 
d="M313 705h-33l-108 123h84zM128 65h356v-63h-434v663h424v-63h-346v-196h246v-16h-246v-325z" />
    <glyph glyph-name="Eacute" unicode="&#xc9;" horiz-adv-x="492" 
d="M391 828l-107 -123h-34l58 123h83zM128 65h356v-63h-434v663h424v-63h-346v-196h246v-16h-246v-325z" />
    <glyph glyph-name="Ecircumflex" unicode="&#xca;" horiz-adv-x="492" 
d="M271 793l-52 -89h-53l75 124h60l76 -124h-53zM128 65h356v-63h-434v663h424v-63h-346v-196h246v-16h-246v-325z" />
    <glyph glyph-name="Edieresis" unicode="&#xcb;" horiz-adv-x="492" 
d="M209 705q-20 0 -32.5 13t-12.5 34q0 20 12.5 33.5t32.5 13.5t33 -13.5t13 -33.5q0 -21 -13 -34t-33 -13zM329.5 705q-19.5 0 -32 13t-12.5 34q0 20 12.5 33.5t32 13.5t32.5 -13.5t13 -33.5q0 -21 -13 -34t-32.5 -13zM128 65h356v-63h-434v663h424v-63h-346v-196h246v-16
h-246v-325z" />
    <glyph glyph-name="Igrave" unicode="&#xcc;" horiz-adv-x="178" 
d="M113 705h-34l-107 123h84zM128 2h-78v663h78v-663z" />
    <glyph glyph-name="Iacute" unicode="&#xcd;" horiz-adv-x="178" 
d="M195 828l-108 -123h-34l58 123h84zM128 2h-78v663h78v-663z" />
    <glyph glyph-name="Icircumflex" unicode="&#xce;" horiz-adv-x="177" 
d="M116 828l76 -123h-53l-53 88l-52 -88h-53l76 123h59zM127 2h-77v663h77v-663z" />
    <glyph glyph-name="Idieresis" unicode="&#xcf;" horiz-adv-x="178" 
d="M148.5 799q19.5 0 32.5 -13.5t13 -33.5q0 -21 -13 -34t-33 -13t-32 13t-12 34q0 20 12.5 33.5t32 13.5zM74 752q0 -21 -13 -34t-33 -13t-32.5 13t-12.5 34q0 20 12.5 33.5t32 13.5t33 -13.5t13.5 -33.5zM127 2h-77v663h77v-663z" />
    <glyph glyph-name="Ntilde" unicode="&#xd1;" horiz-adv-x="572" 
d="M228 750q-32 0 -55 -32v49q2 3 6.5 7t22 11t37.5 7q22 0 54.5 -14.5t51.5 -14.5q11 0 24 7t22 15l8 7v-47q-18 -15 -30.5 -19t-38.5 -4q-16 0 -51 14t-51 14zM444 665h78v-663h-24l-370 548v-548h-78v662l22 1l372 -548v548z" />
    <glyph glyph-name="Ograve" unicode="&#xd2;" horiz-adv-x="726" 
d="M390 705h-34l-108 123h84zM364 677q64 0 124 -22.5t108.5 -64.5t77.5 -109t29 -150q0 -68 -19.5 -125t-52.5 -96.5t-77 -67t-92 -40t-98 -12.5t-98.5 12.5t-92.5 40.5t-77.5 68t-53 97.5t-19.5 126.5q0 151 95 246.5t246 95.5zM364 65q54 0 104 16.5t92 48t67.5 84
t25.5 118.5q0 64 -25 116.5t-66 85t-92 50.5t-106 18q-129 0 -210 -74.5t-81 -192.5q0 -67 25.5 -120t67.5 -85t93 -48.5t105 -16.5z" />
    <glyph glyph-name="Oacute" unicode="&#xd3;" horiz-adv-x="726" 
d="M485 828l-108 -123h-34l58 123h84zM364 677q64 0 124 -22.5t108.5 -64.5t77.5 -109t29 -150q0 -68 -19.5 -125t-52.5 -96.5t-77 -67t-92 -40t-98 -12.5t-98.5 12.5t-92.5 40.5t-77.5 68t-53 97.5t-19.5 126.5q0 151 95 246.5t246 95.5zM364 65q54 0 104 16.5t92 48
t67.5 84t25.5 118.5q0 64 -25 116.5t-66 85t-92 50.5t-106 18q-129 0 -210 -74.5t-81 -192.5q0 -67 25.5 -120t67.5 -85t93 -48.5t105 -16.5z" />
    <glyph glyph-name="Ocircumflex" unicode="&#xd4;" horiz-adv-x="726" 
d="M358 793l-53 -88h-53l76 123h59l76 -123h-53zM364 677q64 0 124 -22.5t108.5 -64.5t77.5 -109t29 -150q0 -68 -19.5 -125t-52.5 -96.5t-77 -67t-92 -40t-98 -12.5t-98.5 12.5t-92.5 40.5t-77.5 68t-53 97.5t-19.5 126.5q0 151 95 246.5t246 95.5zM364 65q54 0 104 16.5
t92 48t67.5 84t25.5 118.5q0 64 -25 116.5t-66 85t-92 50.5t-106 18q-129 0 -210 -74.5t-81 -192.5q0 -67 25.5 -120t67.5 -85t93 -48.5t105 -16.5z" />
    <glyph glyph-name="Otilde" unicode="&#xd5;" horiz-adv-x="726" 
d="M303 750q-32 0 -55 -32v49q2 3 6.5 7t22 11t37.5 7q22 0 54.5 -14.5t51.5 -14.5q11 0 24.5 7t21.5 15l8 7v-47q-18 -15 -30 -19t-38 -4q-17 0 -51.5 14t-51.5 14zM364 677q64 0 124 -22.5t108.5 -64.5t77.5 -109t29 -150q0 -68 -19.5 -125t-52.5 -96.5t-77 -67t-92 -40
t-98 -12.5t-98.5 12.5t-92.5 40.5t-77.5 68t-53 97.5t-19.5 126.5q0 151 95 246.5t246 95.5zM364 65q54 0 104 16.5t92 48t67.5 84t25.5 118.5q0 64 -25 116.5t-66 85t-92 50.5t-106 18q-129 0 -210 -74.5t-81 -192.5q0 -67 25.5 -120t67.5 -85t93 -48.5t105 -16.5z" />
    <glyph glyph-name="Odieresis" unicode="&#xd6;" horiz-adv-x="726" 
d="M302 705q-20 0 -32 13t-12 34q0 20 12.5 33.5t32 13.5t32.5 -13.5t13 -33.5q0 -21 -13 -34t-33 -13zM423 705q-20 0 -32.5 13t-12.5 34q0 20 12.5 33.5t32 13.5t33 -13.5t13.5 -33.5q0 -21 -13 -34t-33 -13zM364 677q64 0 124 -22.5t108.5 -64.5t77.5 -109t29 -150
q0 -68 -19.5 -125t-52.5 -96.5t-77 -67t-92 -40t-98 -12.5t-98.5 12.5t-92.5 40.5t-77.5 68t-53 97.5t-19.5 126.5q0 151 95 246.5t246 95.5zM364 65q54 0 104 16.5t92 48t67.5 84t25.5 118.5q0 64 -25 116.5t-66 85t-92 50.5t-106 18q-129 0 -210 -74.5t-81 -192.5
q0 -67 25.5 -120t67.5 -85t93 -48.5t105 -16.5z" />
    <glyph glyph-name="multiply" unicode="&#xd7;" horiz-adv-x="469" 
d="M435 451l-154 -154l140 -140l-29 -29l-140 140l-158 -158l-61 61l158 158l-140 139l29 30l140 -140l154 154z" />
    <glyph glyph-name="Oslash" unicode="&#xd8;" horiz-adv-x="733" 
d="M612 577q95 -95 95 -246q0 -68 -19.5 -125t-52.5 -96.5t-77 -67t-92 -40t-98 -12.5q-119 0 -210 66l-62 -71l-40 35l62 71q-91 94 -91 244q0 151 95 246.5t246 95.5q115 0 205 -65l60 69l40 -34zM77 335q0 -122 83 -196l367 421q-72 42 -159 42q-129 0 -210 -74.5
t-81 -192.5zM368 65q54 0 104 16.5t92 48t67.5 84t25.5 118.5q0 122 -87 197l-367 -421q74 -43 165 -43z" />
    <glyph glyph-name="Ugrave" unicode="&#xd9;" horiz-adv-x="586" 
d="M329 705h-34l-107 123h83zM469 665h73v-410q0 -65 -15 -113.5t-38.5 -76.5t-58 -45t-66.5 -22.5t-71 -5.5t-70 4.5t-66 20t-58.5 42t-39.5 74.5t-16 113v419h74v-413q0 -111 47.5 -162t127.5 -51q45 0 76 10t54.5 33.5t35 65.5t11.5 104v413z" />
    <glyph glyph-name="Uacute" unicode="&#xda;" horiz-adv-x="586" 
d="M391 828l-107 -123h-34l57 123h84zM469 665h73v-410q0 -65 -15 -113.5t-38.5 -76.5t-58 -45t-66.5 -22.5t-71 -5.5t-70 4.5t-66 20t-58.5 42t-39.5 74.5t-16 113v419h74v-413q0 -111 47.5 -162t127.5 -51q45 0 76 10t54.5 33.5t35 65.5t11.5 104v413z" />
    <glyph glyph-name="Ucircumflex" unicode="&#xdb;" horiz-adv-x="586" 
d="M298 792l-52 -89h-54l76 124h60l75 -124h-53zM469 665h73v-410q0 -65 -15 -113.5t-38.5 -76.5t-58 -45t-66.5 -22.5t-71 -5.5t-70 4.5t-66 20t-58.5 42t-39.5 74.5t-16 114v418h74v-413q0 -110 47.5 -161t127.5 -51q45 0 76 9.5t54.5 33t35 65.5t11.5 104v413z" />
    <glyph glyph-name="Udieresis" unicode="&#xdc;" horiz-adv-x="586" 
d="M231.5 704q-19.5 0 -32 13t-12.5 33t12.5 33.5t32 13.5t33 -13.5t13.5 -33.5t-13.5 -33t-33 -13zM352 704q-20 0 -32.5 13t-12.5 33t12.5 33.5t32.5 13.5t33 -13.5t13 -33.5t-13 -33t-33 -13zM469 665h73v-410q0 -65 -15 -113.5t-38.5 -76.5t-58 -45t-66.5 -22.5
t-71 -5.5t-70 4.5t-66 20t-58.5 42t-39.5 74.5t-16 114v418h74v-413q0 -110 47.5 -161t127.5 -51q45 0 76 9.5t54.5 33t35 65.5t11.5 104v413z" />
    <glyph glyph-name="Yacute" unicode="&#xdd;" horiz-adv-x="497" 
d="M363 827l-107 -124h-34l58 124h83zM488 665h17l-217 -317v-345h-78v335l-218 327h91l197 -302z" />
    <glyph glyph-name="germandbls" unicode="&#xdf;" horiz-adv-x="559" 
d="M510 243q33 -37 33 -87q0 -65 -52.5 -111.5t-133.5 -46.5q-64 0 -112 31q-48 32 -72 81l13 6q8 -16 21.5 -33t34.5 -34.5t50.5 -29t62.5 -11.5q41 0 73 24.5t45 57.5t1 71.5t-52 64.5q-7 4 -51 30.5t-65 40.5q-24 16 -31 41.5t8 54.5q1 3 11.5 22.5t25 48t29.5 53.5
q11 19 15 40t-1 41.5t-18.5 36.5t-41 26t-66.5 10q-59 0 -84 -43.5t-25 -130.5v-488h-82v499q0 48 18 84.5t47 57.5t62 31.5t67 10.5q49 0 87 -15t58.5 -38.5t30.5 -52t7.5 -56.5t-15.5 -51q-49 -85 -59 -106q-7 -13 6 -22q35 -25 65 -43q44 -27 59 -37.5t31 -27.5z" />
    <glyph glyph-name="agrave" unicode="&#xe0;" 
d="M289 547h-33l-108 124h84zM247 499q84 0 139.5 -49t55.5 -130v-311h-77v68q-3 -3 -7.5 -8t-21 -18t-35.5 -22.5t-48.5 -18.5t-61.5 -10q-76 -4 -122.5 37t-46.5 102q0 41 21.5 77t57 58.5t80.5 37t91.5 13t91.5 -13.5q-2 65 -31.5 105t-80.5 40q-73 0 -121 -100l-79 44
q62 99 195 99zM365 148v152q-43 12 -88.5 8t-83.5 -17.5t-64.5 -42.5t-30.5 -68q-5 -53 25.5 -89.5t93.5 -36.5q29 0 55 10t42.5 23.5t28.5 27.5t17 23z" />
    <glyph glyph-name="aacute" unicode="&#xe1;" 
d="M342 671l-107 -124h-34l58 124h83zM247 499q84 0 139.5 -49t55.5 -130v-311h-77v68q-3 -3 -7.5 -8t-21 -18t-35.5 -22.5t-48.5 -18.5t-61.5 -10q-76 -3 -122.5 38t-46.5 101q0 41 21.5 77t57 58.5t80.5 37t91.5 13t91.5 -13.5q-2 65 -31.5 105t-80.5 40q-73 0 -121 -100
l-79 44q62 99 195 99zM365 148v152q-43 12 -88.5 8t-83.5 -17.5t-64.5 -42.5t-30.5 -68q-5 -53 25.5 -89.5t93.5 -36.5q29 0 55 10t42.5 23.5t28.5 27.5t17 23z" />
    <glyph glyph-name="acircumflex" unicode="&#xe2;" 
d="M232 636l-52 -89h-53l75 124h60l76 -124h-54zM247 499q84 0 139.5 -49t55.5 -130v-311h-77v68q-3 -3 -7.5 -8t-21 -18t-35.5 -22.5t-48.5 -18.5t-61.5 -10q-76 -3 -122.5 38t-46.5 101q0 41 21.5 77t57 58.5t80.5 37t91.5 13t91.5 -13.5q-2 65 -31.5 105t-80.5 40
q-73 0 -121 -100l-79 44q62 99 195 99zM365 148v152q-43 12 -88.5 8t-83.5 -17.5t-64.5 -42.5t-30.5 -68q-5 -53 25.5 -89.5t93.5 -36.5q29 0 55 10t42.5 23.5t28.5 27.5t17 23z" />
    <glyph glyph-name="atilde" unicode="&#xe3;" 
d="M159 594q-32 0 -55 -33v50q3 2 7.5 6.5t21.5 11.5t37 7q22 0 54.5 -15t51.5 -15q11 0 24.5 7.5t21.5 14.5l8 8v-47q-17 -16 -29.5 -19.5t-38.5 -4.5q-17 0 -51.5 14.5t-51.5 14.5zM247 499q84 0 139.5 -49t55.5 -130v-311h-77v68q-3 -3 -7.5 -8t-21 -18t-35.5 -22.5
t-48.5 -18.5t-61.5 -10q-76 -3 -122.5 38t-46.5 101q0 41 21.5 77t57 58.5t80.5 37t91.5 13t91.5 -13.5q-2 65 -31.5 105t-80.5 40q-73 0 -121 -100l-79 44q62 99 195 99zM365 148v152q-43 12 -88.5 8t-83.5 -17.5t-64.5 -42.5t-30.5 -68q-5 -53 25.5 -89.5t93.5 -36.5
q29 0 55 10t42.5 23.5t28.5 27.5t17 23z" />
    <glyph glyph-name="adieresis" unicode="&#xe4;" 
d="M171 548q-20 0 -32 13t-12 34q0 19 12.5 32.5t32 13.5t32.5 -13.5t13 -32.5q0 -21 -13 -34t-33 -13zM292 548q-20 0 -32.5 13t-12.5 34q0 19 12.5 32.5t32 13.5t33 -13.5t13.5 -32.5q0 -21 -13 -34t-33 -13zM247 499q84 0 139.5 -49t55.5 -130v-311h-77v68q-3 -3 -7.5 -8
t-21 -18t-35.5 -22.5t-48.5 -18.5t-61.5 -10q-76 -3 -122.5 38t-46.5 101q0 41 21.5 77t57 58.5t80.5 37t91.5 13t91.5 -13.5q-2 65 -31.5 105t-80.5 40q-73 0 -121 -100l-79 44q62 99 195 99zM365 148v152q-43 12 -88.5 8t-83.5 -17.5t-64.5 -42.5t-30.5 -68
q-5 -53 25.5 -89.5t93.5 -36.5q29 0 55 10t42.5 23.5t28.5 27.5t17 23z" />
    <glyph glyph-name="aring" unicode="&#xe5;" 
d="M237 522q-33 0 -57 24t-24 57.5t24 57t57 23.5t57 -23.5t24 -57t-24 -57.5t-57 -24zM237 645q-17 0 -29 -12.5t-12 -29.5t12 -29t29 -12t29 12t12 29t-12 29.5t-29 12.5zM247 499q84 0 139.5 -49t55.5 -130v-311h-77v68q-3 -3 -7.5 -8t-21 -18t-35.5 -22.5t-48.5 -18.5
t-61.5 -10q-76 -3 -122.5 38t-46.5 101q0 41 21.5 77t57 58.5t80.5 37t91.5 13t91.5 -13.5q-2 65 -31.5 105t-80.5 40q-73 0 -121 -100l-79 44q62 99 195 99zM365 148v152q-43 12 -88.5 8t-83.5 -17.5t-64.5 -42.5t-30.5 -68q-5 -53 25.5 -89.5t93.5 -36.5q29 0 55 10
t42.5 23.5t28.5 27.5t17 23z" />
    <glyph glyph-name="ae" unicode="&#xe6;" horiz-adv-x="849" 
d="M636 59q34 0 63.5 10.5t46.5 23.5t31 29.5t17.5 23.5t5.5 12v1l21 -4q-2 -6 -6.5 -16.5t-22.5 -37t-40 -46.5t-61 -37t-85 -17q-44 0 -87 17.5t-77 50.5v-60h-77v68q-3 -3 -7.5 -8t-21 -18t-35.5 -22.5t-48.5 -18.5t-61.5 -10q-76 -3 -122.5 38t-46.5 101q0 41 21.5 77
t57 58.5t80.5 37t91.5 13t91.5 -13.5q-2 65 -31.5 105t-80.5 40q-73 0 -121 -100l-79 44q62 99 195 99q56 0 101.5 -23.5t69.5 -66.5q67 89 192 89q50 0 92.5 -19t68.5 -49t40.5 -64t14.5 -65h-380q-5 -20 -2 -46t8 -52.5t20 -52.5t35.5 -46t53.5 -32.5t75 -12.5zM599 447
q-55 0 -97 -33t-54 -97h301q0 48 -41 89t-109 41zM365 148v152q-43 12 -88.5 8t-83.5 -17.5t-64.5 -42.5t-30.5 -68q-5 -53 25.5 -89.5t93.5 -36.5q29 0 55 10t42.5 23.5t28.5 27.5t17 23z" />
    <glyph glyph-name="ccedilla" unicode="&#xe7;" horiz-adv-x="496" 
d="M476 154q-2 -6 -6.5 -16.5t-22 -37t-39.5 -46.5t-61 -37t-85 -17l-2 -25l9 -3t20 -10t24.5 -18.5t17 -28.5t2.5 -39q-5 -28 -24 -45t-42.5 -21.5t-46.5 -5.5t-38 1l-15 2l3 45q5 0 12.5 -1t26.5 -1.5t34.5 1.5t29 10.5t15.5 22.5q4 22 -16.5 38t-43.5 20l-23 5l8 59
q-78 17 -133 81t-55 162q0 111 66 179.5t174 68.5q80 0 135.5 -45.5t73.5 -106.5h-74q-12 41 -50.5 70.5t-95.5 29.5q-27 0 -53 -10t-50 -31.5t-38.5 -61.5t-14.5 -93q0 -35 11 -67t32.5 -60.5t60 -46t89.5 -17.5q35 0 64.5 10.5t47.5 25t30.5 29t17.5 24.5l5 10z" />
    <glyph glyph-name="egrave" unicode="&#xe8;" horiz-adv-x="504" 
d="M307 547h-34l-108 124h84zM291 59q34 0 63.5 10.5t46.5 23.5t31 29.5t17.5 23.5t5.5 12l1 1l20 -4q-2 -6 -6.5 -16.5t-22.5 -37t-40 -46.5t-61 -37t-85 -17q-42 0 -83.5 16.5t-76 47t-55.5 79t-21 106.5q0 112 66 180t174 68q50 0 92.5 -19t68.5 -49t40.5 -64t14.5 -65
h-380q-5 -20 -2 -46t8 -52.5t20.5 -52.5t35.5 -46t53.5 -32.5t74.5 -12.5zM254 447q-55 0 -97 -33t-54 -97h302q0 48 -41.5 89t-109.5 41z" />
    <glyph glyph-name="eacute" unicode="&#xe9;" horiz-adv-x="504" 
d="M355 671l-108 -124h-33l57 124h84zM291 59q34 0 63.5 10.5t46.5 23.5t31 29.5t17.5 23.5t5.5 12l1 1l20 -4q-2 -6 -6.5 -16.5t-22.5 -37t-40 -46.5t-61 -37t-85 -17q-42 0 -83.5 16.5t-76 47t-55.5 79t-21 106.5q0 112 66 180t174 68q50 0 92.5 -19t68.5 -49t40.5 -64
t14.5 -65h-380q-5 -20 -2 -46t8 -52.5t20.5 -52.5t35.5 -46t53.5 -32.5t74.5 -12.5zM254 447q-55 0 -97 -33t-54 -97h302q0 48 -41.5 89t-109.5 41z" />
    <glyph glyph-name="ecircumflex" unicode="&#xea;" horiz-adv-x="504" 
d="M253 635l-52 -88h-53l75 123h60l76 -123h-54zM291 59q35 0 64.5 10.5t47.5 25t30.5 29t17.5 24.5l4 11l21 -4q-2 -6 -6.5 -16.5t-22.5 -37t-40 -46.5t-61 -37t-85 -17q-42 0 -83.5 16.5t-76 47t-55.5 79t-21 106.5q0 112 66 180t174 68q50 0 92.5 -19t68.5 -49t40.5 -64
t14.5 -65h-380q-5 -20 -2 -46t8 -52.5t20.5 -52.5t35.5 -46t53.5 -32.5t74.5 -12.5zM254 447q-55 0 -97 -33t-54 -97h302q0 48 -41.5 89t-109.5 41z" />
    <glyph glyph-name="edieresis" unicode="&#xeb;" horiz-adv-x="504" 
d="M193 548q-20 0 -32.5 13t-12.5 34q0 19 12.5 32.5t32.5 13.5t33 -13.5t13 -32.5q0 -21 -13 -34t-33 -13zM313.5 548q-19.5 0 -32 13t-12.5 34q0 19 12.5 32.5t32 13.5t33 -13.5t13.5 -32.5q0 -21 -13.5 -34t-33 -13zM291 59q34 0 63.5 10.5t46.5 23.5t31 29.5t17.5 23.5
t5.5 12l1 1l20 -4q-2 -6 -6.5 -16.5t-22.5 -37t-40 -46.5t-61 -37t-85 -17q-42 0 -83.5 16.5t-76 47t-55.5 79t-21 106.5q0 112 66 180t174 68q50 0 92.5 -19t68.5 -49t40.5 -64t14.5 -65h-380q-5 -20 -2 -46t8 -52.5t20.5 -52.5t35.5 -46t53.5 -32.5t74.5 -12.5zM254 447
q-55 0 -97 -33t-54 -97h302q0 48 -41.5 89t-109.5 41z" />
    <glyph glyph-name="igrave" unicode="&#xec;" horiz-adv-x="169" 
d="M109 547h-34l-107 124h84zM123 9h-78v480h78v-480z" />
    <glyph glyph-name="iacute" unicode="&#xed;" horiz-adv-x="168" 
d="M195 671l-108 -124h-33l57 124h84zM123 9h-78v480h78v-480z" />
    <glyph glyph-name="icircumflex" unicode="&#xee;" horiz-adv-x="167" 
d="M113 671l76 -124h-53l-53 89l-52 -89h-53l76 124h59zM122 9h-77v480h77v-480z" />
    <glyph glyph-name="idieresis" unicode="&#xef;" horiz-adv-x="168" 
d="M143.5 641q19.5 0 32.5 -13.5t13 -32.5q0 -21 -13 -34t-33 -13t-32 13t-12 34q0 20 12.5 33t32 13zM69 595q0 -21 -13 -34t-33 -13t-32.5 13t-12.5 34q0 20 12.5 33t32 13t33 -13.5t13.5 -32.5zM122 9h-77v480h77v-480z" />
    <glyph glyph-name="ntilde" unicode="&#xf1;" 
d="M171 593q-15 0 -28.5 -8t-20.5 -16l-6 -9v50q2 3 6.5 7t21.5 11t38 7q22 0 54.5 -15t51.5 -15q11 0 24 7.5t22 14.5l8 8v-47q-18 -15 -30.5 -19t-38.5 -4q-16 -1 -51 13.5t-51 14.5zM277 496q84 0 125 -48.5t41 -132.5v-308h-78v304q0 155 -121 155q-26 0 -48.5 -12.5
t-35.5 -30.5t-22 -36t-12 -30l-4 -13v-337h-77v480h77v-102q2 4 5 11.5t16 27t29 34t44.5 26.5t60.5 12z" />
    <glyph glyph-name="ograve" unicode="&#xf2;" horiz-adv-x="508" 
d="M281 547h-34l-108 124h84zM254 501q44 0 84 -15t72.5 -44t52 -77t19.5 -110q0 -57 -20 -105.5t-52.5 -80.5t-73 -50t-82.5 -18q-43 0 -82.5 15t-73 43.5t-53.5 77t-20 109.5q0 57 20 106.5t52.5 81.5t73.5 49.5t83 17.5zM252.5 82q82.5 0 140.5 49.5t58 119.5t-58 119.5
t-140.5 49.5t-141 -49.5t-58.5 -119.5t58.5 -119.5t141 -49.5z" />
    <glyph glyph-name="oacute" unicode="&#xf3;" horiz-adv-x="508" 
d="M372 671l-107 -124h-34l58 124h83zM254 501q44 0 84 -15t72.5 -44t52 -77t19.5 -110q0 -57 -20 -105.5t-52.5 -80.5t-73 -50t-82.5 -18q-43 0 -82.5 15t-73 43.5t-53.5 77t-20 109.5q0 57 20 106.5t52.5 81.5t73.5 49.5t83 17.5zM252.5 82q82.5 0 140.5 49.5t58 119.5
t-58 119.5t-140.5 49.5t-141 -49.5t-58.5 -119.5t58.5 -119.5t141 -49.5z" />
    <glyph glyph-name="ocircumflex" unicode="&#xf4;" horiz-adv-x="508" 
d="M253 636l-52 -89h-53l76 124h59l76 -124h-53zM254 501q44 0 84 -15t72.5 -44t52 -77t19.5 -110q0 -57 -20 -105.5t-52.5 -80.5t-73 -50t-82.5 -18q-43 0 -82.5 15t-73 43.5t-53.5 77t-20 109.5q0 57 20 106.5t52.5 81.5t73.5 49.5t83 17.5zM252.5 82q82.5 0 140.5 49.5
t58 119.5t-58 119.5t-140.5 49.5t-141 -49.5t-58.5 -119.5t58.5 -119.5t141 -49.5z" />
    <glyph glyph-name="otilde" unicode="&#xf5;" horiz-adv-x="508" 
d="M196 593q-15 0 -29 -8t-20 -16l-6 -9v50q2 3 6.5 7t21.5 11t38 7t53.5 -15t52.5 -15q11 0 24 7.5t21 14.5l9 8v-47q-18 -15 -30.5 -19t-38.5 -4q-16 -1 -51 13.5t-51 14.5zM254 501q44 0 84 -15t72.5 -44t52 -77t19.5 -110q0 -57 -20 -105.5t-52.5 -80.5t-73 -50
t-82.5 -18q-43 0 -82.5 15t-73 43.5t-53.5 77t-20 109.5q0 57 20 106.5t52.5 81.5t73.5 49.5t83 17.5zM252.5 82q82.5 0 140.5 49.5t58 119.5t-58 119.5t-140.5 49.5t-141 -49.5t-58.5 -119.5t58.5 -119.5t141 -49.5z" />
    <glyph glyph-name="odieresis" unicode="&#xf6;" horiz-adv-x="508" 
d="M191.5 548q-19.5 0 -32 13t-12.5 34q0 19 12.5 32.5t32 13.5t33 -13.5t13.5 -32.5q0 -21 -13.5 -34t-33 -13zM312 548q-20 0 -32.5 13t-12.5 34q0 19 12.5 32.5t32.5 13.5t33 -13.5t13 -32.5q0 -21 -13 -34t-33 -13zM254 501q44 0 84 -15t72.5 -44t52 -77t19.5 -110
q0 -57 -20 -105.5t-52.5 -80.5t-73 -50t-82.5 -18q-43 0 -82.5 15t-73 43.5t-53.5 77t-20 109.5q0 57 20 106.5t52.5 81.5t73.5 49.5t83 17.5zM252.5 82q82.5 0 140.5 49.5t58 119.5t-58 119.5t-140.5 49.5t-141 -49.5t-58.5 -119.5t58.5 -119.5t141 -49.5z" />
    <glyph glyph-name="oslash" unicode="&#xf8;" horiz-adv-x="514" 
d="M428 428q58 -66 58 -173q0 -57 -20 -105.5t-52.5 -80.5t-73 -50t-82.5 -18q-72 0 -131 39l-46 -60l-42 32l49 63q-59 66 -59 171q0 58 20 107t52.5 81t73.5 49.5t83 17.5q73 0 131 -38l46 59l41 -32zM126 124l216 278q-42 18 -86 18q-82 0 -140.5 -49.5t-58.5 -119.5
q0 -76 69 -127zM256 82q83 0 141 49.5t58 119.5q0 74 -67 125l-215 -278q40 -16 83 -16z" />
    <glyph glyph-name="ugrave" unicode="&#xf9;" 
d="M277 547h-33l-108 124h84zM361 489l77 -1v-479h-78v102q-1 -5 -4.5 -12.5t-16 -26.5t-29 -33.5t-44.5 -27t-61 -12.5q-84 0 -124.5 49t-40.5 133v308h78v-304q0 -156 120 -156q27 0 49.5 13t35.5 30.5t22 35.5t12 31l3 13z" />
    <glyph glyph-name="uacute" unicode="&#xfa;" 
d="M340 671l-108 -124h-34l58 124h84zM361 489l77 -1v-479h-78v102q-1 -5 -4.5 -12.5t-16 -26.5t-29 -33.5t-44.5 -27t-61 -12.5q-84 0 -124.5 49t-40.5 133v308h78v-304q0 -156 120 -156q27 0 49.5 13t35.5 30.5t22 35.5t12 31l3 13z" />
    <glyph glyph-name="ucircumflex" unicode="&#xfb;" 
d="M239 634l-52 -89h-54l76 124h60l75 -124h-53zM361 489h77v-480h-78v102q-1 -5 -4.5 -12.5t-16 -26.5t-29 -33.5t-44.5 -26.5t-61 -12q-84 0 -124.5 48.5t-40.5 132.5v308h78v-304q0 -156 120 -156q27 0 49.5 13t35.5 30.5t22 35.5t12 31l3 13z" />
    <glyph glyph-name="udieresis" unicode="&#xfc;" 
d="M178 546q-20 0 -32.5 13t-12.5 33t12.5 33.5t32.5 13.5t33 -13.5t13 -33.5t-13 -33t-33 -13zM298.5 546q-19.5 0 -32 13t-12.5 33t12.5 33.5t32 13.5t32.5 -13.5t13 -33.5t-13 -33t-32.5 -13zM360 489h78v-480h-78v102q-1 -5 -4.5 -12.5t-16 -26.5t-29 -33.5t-44.5 -26.5
t-61 -12q-84 0 -124.5 48.5t-40.5 132.5v308h77v-304q0 -156 121 -156q27 0 49.5 13t35.5 30.5t22 35.5t12 31l3 13v337z" />
    <glyph glyph-name="yacute" unicode="&#xfd;" horiz-adv-x="458" 
d="M352 669l-108 -124h-33l57 124h84zM435 489h18l-214 -548q-21 -55 -69.5 -88t-106.5 -33h-16v94h107q28 0 50.5 15.5t32.5 41.5l15 38h-69l-179 480h83l171 -460z" />
    <glyph glyph-name="ydieresis" unicode="&#xff;" horiz-adv-x="458" 
d="M182.5 546q-19.5 0 -32 13t-12.5 33t12.5 33.5t32 13.5t32.5 -13.5t13 -33.5t-13 -33t-32.5 -13zM303 546q-20 0 -32.5 13t-12.5 33t12.5 33.5t32.5 13.5t33 -13.5t13 -33.5t-13 -33t-33 -13zM435 489h18l-214 -548q-21 -55 -69.5 -88t-106.5 -33h-16v94h107
q28 0 50.5 15.5t32.5 41.5l15 38h-69l-179 480h83l171 -460z" />
    <glyph glyph-name="dotlessi" unicode="&#x131;" horiz-adv-x="168" 
d="M123 9h-78v479h78v-479z" />
    <glyph glyph-name="OE" unicode="&#x152;" horiz-adv-x="1099" 
d="M735 390v-325h356v-63h-434v147q-45 -78 -124.5 -118.5t-168.5 -40.5q-50 0 -98.5 12.5t-92.5 40.5t-77.5 68t-53 97.5t-19.5 126.5q0 151 95 246.5t246 95.5q89 0 168.5 -42.5t124.5 -121.5v152h424v-63h-346v-196h246v-16h-246zM364 65q54 0 104 16.5t92 48t67.5 84
t25.5 118.5q0 64 -25 116.5t-66 85t-92 50.5t-106 18q-129 0 -210 -74.5t-81 -192.5q0 -67 25.5 -120t67.5 -85t93 -48.5t105 -16.5z" />
    <glyph glyph-name="oe" unicode="&#x153;" horiz-adv-x="933" 
d="M719 59q34 0 63.5 10.5t46.5 23t31 29.5t18 24t6 12v1l21 -4q-2 -6 -6.5 -16.5t-22.5 -37t-40 -46.5t-61.5 -37t-84.5 -17q-71 0 -134 43.5t-89 119.5q-25 -75 -85.5 -119t-127.5 -44q-43 0 -82.5 15t-73 44t-53.5 77t-20 109q0 58 20 107t52.5 81t73.5 49.5t83 17.5
q73 0 132.5 -39.5t82.5 -115.5q25 71 84 111.5t141 40.5q50 0 92 -19t68.5 -49t41 -64t14.5 -65h-381q-4 -20 -1 -46t8 -52.5t20 -52.5t35.5 -46t53.5 -32.5t74 -12.5zM682 447q-54 0 -96 -33t-54 -97h301q0 48 -41.5 89t-109.5 41zM252.5 82q82.5 0 140.5 49.5t58 119.5
t-58 119.5t-140.5 49.5t-141 -49.5t-58.5 -119.5t58.5 -119.5t141 -49.5z" />
    <glyph glyph-name="Scaron" unicode="&#x160;" horiz-adv-x="543" 
d="M301 703h-60l-75 124h53l52 -89l52 89h54zM337 339q3 -1 19.5 -5.5t23.5 -6t24 -7t26 -9.5t24 -11.5t23 -15t19 -18.5t16.5 -22.5t9.5 -27t4 -31.5q0 -78 -71.5 -134t-183.5 -56q-148 0 -233 102l72 55q2 -5 5.5 -13t18 -29t31 -37t45.5 -29.5t61 -13.5q39 0 72.5 18.5
t54.5 47t30 63.5t2.5 67t-32.5 58.5t-69 37.5q-57 15 -130 35q-46 14 -75 25.5t-56 29t-39 43t-12 59.5q0 25 15.5 52.5t44.5 53t79 42t112 16.5q120 0 206 -80l15 -15l-68 -59q-1 5 -4 13t-16.5 28t-30.5 35.5t-49 28t-70 12.5q-39 0 -69.5 -17t-46 -43.5t-18 -59t9.5 -63
t40.5 -56t70.5 -37.5q55 -15 99 -26z" />
    <glyph glyph-name="scaron" unicode="&#x161;" horiz-adv-x="414" 
d="M250 545h-60l-76 124h54l52 -89l52 89h53zM255 250l16 -4l20 -5t19.5 -6t21.5 -9t18.5 -10.5t18 -14t12.5 -17t10 -21.5t3 -26q0 -57 -52.5 -98t-135.5 -41q-108 0 -170 75l52 40q2 -3 4.5 -9t13 -21.5t23 -27.5t33.5 -21.5t44 -9.5q35 0 63.5 18.5t41.5 47t14.5 58.5
t-18.5 55.5t-58 34.5q-42 11 -95 26q-70 20 -102 43.5t-32 71.5q0 42 49 81.5t135 39.5q30 0 57.5 -7t45.5 -17.5t32.5 -20.5t20.5 -18l7 -7l-50 -43l-3 9t-12 20.5t-22.5 26t-36 20.5t-51.5 9q-43 0 -69.5 -26.5t-29.5 -60.5t20.5 -68t69.5 -47q39 -11 72 -20z" />
    <glyph glyph-name="Ydieresis" unicode="&#x178;" horiz-adv-x="497" 
d="M186.5 704q-19.5 0 -32 13t-12.5 33t12.5 33.5t32 13.5t33 -13.5t13.5 -33.5t-13.5 -33t-33 -13zM307 704q-20 0 -32.5 13t-12.5 33t12.5 33.5t32.5 13.5t33 -13.5t13 -33.5t-13 -33t-33 -13zM488 665h17l-217 -317v-345h-78v335l-218 327h91l197 -302z" />
    <glyph glyph-name="Zcaron" unicode="&#x17d;" horiz-adv-x="537" 
d="M297 703h-60l-76 123h54l52 -88l52 88h53zM534 656l-473 -590h453v-63h-514v11l474 588h-415v63h475v-9z" />
    <glyph glyph-name="zcaron" unicode="&#x17e;" horiz-adv-x="412" 
d="M234 544h-59l-76 124h53l53 -88l52 88h53zM397 480l-314 -394h314v-77h-385v10l315 392h-304v78h374v-9z" />
    <glyph glyph-name="endash" unicode="&#x2013;" horiz-adv-x="449" 
d="M423 220h-397v57h397v-57z" />
    <glyph glyph-name="emdash" unicode="&#x2014;" horiz-adv-x="567" 
d="M541 220h-515v57h515v-57z" />
    <glyph glyph-name="quoteleft" unicode="&#x2018;" horiz-adv-x="170" 
d="M125 500q3 -1 7 -7t4 -15q0 -15 -10.5 -26t-29.5 -11q-23 0 -42.5 20.5t-19.5 56.5q0 39 28 66.5t65 37.5l9 -21q-58 -27 -58 -62q0 -17 11.5 -25t35.5 -14z" />
    <glyph glyph-name="quoteright" unicode="&#x2019;" horiz-adv-x="170" 
d="M74 622q22 0 41.5 -20t19.5 -56q0 -40 -28 -67t-65 -38l-9 21q58 27 58 63q0 17 -11.5 25t-34.5 14q-4 0 -8 6.5t-4 15.5q0 15 11 25.5t30 10.5z" />
    <glyph glyph-name="quotesinglbase" unicode="&#x201a;" horiz-adv-x="142" 
d="M65 38q22 0 41.5 -20t19.5 -57q0 -39 -28 -66.5t-65 -37.5l-9 21q58 27 58 62q0 17 -11.5 25t-34.5 14q-4 1 -8 7.5t-4 15.5q0 14 11 25t30 11z" />
    <glyph glyph-name="quotedblleft" unicode="&#x201c;" horiz-adv-x="284" 
d="M136 601q-58 -27 -58 -62q0 -17 11.5 -25t35.5 -14q3 -1 7 -7t4 -15q0 -15 -10.5 -26t-29.5 -11q-23 0 -42.5 20.5t-19.5 56.5q0 40 28 67t65 37zM239 500q4 -1 8 -7t4 -15q0 -15 -11 -26t-30 -11q-23 0 -42.5 20.5t-19.5 56.5q0 40 28 67t65 37l10 -21q-58 -27 -58 -62
q0 -17 11.5 -25t34.5 -14z" />
    <glyph glyph-name="quotedblright" unicode="&#x201d;" horiz-adv-x="284" 
d="M188 622q23 0 42.5 -20t19.5 -56q0 -40 -28 -67t-65 -38l-10 21q58 27 58 63q0 17 -11.5 25t-34.5 14q-4 0 -8 6.5t-4 15.5q0 15 11 25.5t30 10.5zM74 623q22 0 41.5 -20.5t19.5 -56.5q0 -40 -28 -67t-65 -38l-9 21q58 27 58 63q0 17 -11.5 25t-34.5 14q-4 0 -8 6.5
t-4 15.5q0 15 11 26t30 11z" />
    <glyph glyph-name="quotedblbase" unicode="&#x201e;" horiz-adv-x="256" 
d="M179 38q23 0 42.5 -20t19.5 -57q0 -39 -28 -66.5t-65 -37.5l-10 21q58 27 58 62q0 17 -11.5 25t-34.5 14q-4 1 -8 7.5t-4 15.5q0 14 11 25t30 11zM65 38q22 0 41.5 -20t19.5 -57q0 -39 -28 -66t-65 -38l-9 21q58 27 58 62q0 17 -11.5 25t-34.5 14q-4 1 -8 7.5t-4 15.5
q0 14 11 25t30 11z" />
    <glyph glyph-name="dagger" unicode="&#x2020;" horiz-adv-x="432" 
d="M249 559h161v-66h-161v-603h-68v603h-160v66h160v182h68v-182z" />
    <glyph glyph-name="bullet" unicode="&#x2022;" horiz-adv-x="241" 
d="M119 399q38 0 63 -25.5t25 -63.5q0 -39 -25 -64t-63 -25t-61.5 25t-23.5 64q0 38 24 63.5t61 25.5z" />
    <glyph glyph-name="guilsinglleft" unicode="&#x2039;" horiz-adv-x="260" 
d="M106 302l120 -192h-73l-120 192l120 192h72z" />
    <glyph glyph-name="guilsinglright" unicode="&#x203a;" horiz-adv-x="259" 
d="M106 494l119 -192l-120 -192h-72l119 192l-120 192h74z" />
    <glyph glyph-name="Euro" unicode="&#x20ac;" horiz-adv-x="612" 
d="M578 112l5 -27q-82 -80 -182 -80q-87 0 -157 45t-111 121q-23 43 -33 95h-55v31h49q-2 22 -2 42q0 23 3 46h-63v31h68q11 49 33 90q41 77 110.5 121.5t151.5 44.5t152 -45l0.5 -0.5l0.5 -0.5v-32q-68 51 -144 51q-68 0 -127 -25q-34 -14 -68.5 -64.5t-35.5 -120.5
q0 -1 2 -19h261v-31h-256q8 -38 27 -88h242v-31h-230v-1q45 -107 90 -152q61 -63 144 -63q59 0 125 62z" />
    </font>
</defs>
</svg>
